0

White House Down

White House Down 2013 DVDSCR AC3-MURDER

IMDB: http://www.imdb.com/title/tt2334879/

Source: White House Down 2013 DVDScr XviD AC3-SmY (thanks)

Format : Matroska
Format version : Version 4 / Version 2
File size : 1.47 GiB
Duration : 2h 4mn
Overall bit rate : 1 687 Kbps
Encoded date : UTC 2013-08-04 21:16:58

Video
ID : 1
Format : AVC
Format/Info : Advanced Video Codec
Format profile : Baseline@L3.0
Format settings, CABAC : No
Format settings, ReFrames : 1 frame
Codec ID : V_MPEG4/ISO/AVC
Duration : 2h 4mn
Bit rate : 1 525 Kbps
Width : 640 pixels
Height : 296 pixels
Display aspect ratio : 2.35:1
Frame rate mode : Constant
Frame rate : 29.970 fps
Color space : YUV
Chroma subsampling : 4:2:0
Bit depth : 8 bits
Scan type : Progressive
Bits/(Pixel*Frame) : 0.269
Stream size : 1.33 GiB (90%)
Writing library : 
Default : Yes
Forced : No

Audio
ID : 2
Format : AC-3
Format/Info : Audio Coding 3
Mode extension : CM (complete main)
Format settings, Endianness : Big
Codec ID : A_AC3
Duration : 2h 4mn
Bit rate mode : Constant
Bit rate : 128 Kbps
Channel(s) : 2 channels
Channel positions : Front: L R
Sampling rate : 44.1 KHz
Bit depth : 16 bits
Compression mode : Lossy
Stream size : 114 MiB (8%)
Default : Yes
Forced : No
 

Screen Shots

 

 Download

 


PASSWORD*-requestfordownloads.blogspot.com

 

Post a Comment Blogger

Comment Rules:-
1.We don't publish Your comments if we found any third party Links.
2. Don't be Abusive here. We take strong action against abuser.
3.You can Report Bugs here.
4.You should comment if Links are Dead.[please check all mirror links before commenting]
5.Don't forget to check "Notify Me" to get reply on your email.

 
Top